Главная Карта сайта

Most viewed

Панорама нариманова

Точная спутниковая карта Нариманова (Narimanov) с поиском Гугл находится в своей рубрике. На кухне встроенная кухонная мебель, балкон с отличным видом на город не выходя из дома Вы будете наслаждаться завораживающей панорамой города Баку. Ранее название


Читать дальше

Каскад гаджиево

Электронная почта: Директор - Амбарнов Александр Алексеевич, телефоны: приемная (81539) 55-370 заместитель директора (81539) 55-327 главный бухгалтер (81539) 55-396 бухгалтерия по начислению ЖКУ (81539) 55-376 бухгалтерия по начислению ЖКУ (прием показаний по ИПУ) (81539) 55-379 юристы


Читать дальше

Янаул можга

02: :16 12 ч 58 мин Вятские Поляны 04: :43 15 ч 25 мин Кизнер 06: :21 16 ч 3 мин Можга 07: :05 16 ч 47 мин Агрыз-1 06: :12 17 ч 54 мин Сарапул


Читать дальше

Top news

Михайловка нефтекамск
Нам очень нужна Ваша помощь! Время отправления автобусов, автовокзал: Нефтекамск,. В банку для сбора средств установленные в магазинах. Expand text в "Сообщении получателю" указать "Озеро Светлое". Просим Вас также сделать репост записи! Подробное описание проекта..
Читать дальше
Кпд топки
К содержанию, дополнительный отбор тепла от плиты, тепло испускаемого варочной поверхности плиты можно перенаправить обратно в помещение, тем самым повысить скорость прогрева дома. Гарантия : 5 лет, огонь : непрерывный, вес : 130. Мощность: 15 кВт..
Читать дальше
Взрослая поликлиника енисейск
Главный врач кгбуз «Енисейская РБ арутюнян Владимир Арменакович, прием по личным вопросам каждый четверг с 16-00 до 17-00 по адресу Кирова. Лесосибирске Почтовый адрес: 662547,. Адрес организации на карте Енисейска. Мира, 5 Факс: (391-45) 5-42-19 E-mail..
Читать дальше

Аше натали


аше натали

что мы прожили у вас! Место Варианты цен 01 Июл 31 Июл 01 Авг жкх усть кута 20 Авг 21 Авг 31 Авг 01 Сен 15 Сен 16 Сен 30 Сен 01 Окт 31 Окт х комнат. В эти же годы были выпущены три видеокассеты с записями выступлений, клипами и интервью с певицей, ее родными и друзьями. 100 какая-то ошибка, может быть и на самом диске там? Вы находитесь: Отдых на Черном море в России, отдых в Сочи, отдых в Лазаревском, частный сектор в Лазаревском - "У Натальи" частный сектор в Лазаревском "У Натальи" частный сектор в Лазаревском - Читайте подробнее эту и другую информацию об отдыхе в Сочи и других курортах. В середине апреля 2004 года, в предверии выхода нового альбома, на экранах ТВ появляется клип "Вот как в котором Натали продемонстрировала свои артистические способности в трех непростых и прямопротивоположных образах своих героинь: эротичной и вызывающей своими манерами особы, скромной и застенчивой послевоенной провинциальной девушки. Хозяева очень гостеприимные люди.

Ты уже не мираж. Мой самозванец Лог Exact Audio Copy.99 prebeta 4 from. Как бы подводя итог начала своей карьеры в этом же году выходит в свет сборник лучших песен "Провинциальная девчонка с тремя новыми хитами, один из которых является автобиографичным. Значимость этого события неоценима!

Варианты цен за номер Варианты цен 01 Июл 31 Июл 01 Авг 20 Авг 21 Авг 31 Авг 01 Сен 15 Сен 16 Сен 30 Сен 01 Окт 31 Окт х местный номер (корпус 2) Забронировать номер Фото (4) Описание номера В номере: сплит-система, телевизор. За само оформление отдельное спасибо, всё сделано красиво). Wav Пиковый уровень.5 Качество диапазона 100.0 CRC теста 9BC08249 CRC копии 9BC08249 Копирование. Все очень понравилось, приедем на следующий год! Wav Пиковый уровень.8 Качество диапазона 100.0 CRC теста DC85F09F CRC копии DC85F09F Копирование. Благодаря открытому характеру, она сразу становится уважаема среди коллег и очень любима своими учениками, которые с нескрываемой гордостью хвалились что у них самая красивая и самая добрая учительница. Рядом много столовых и кафе. #8 Светлана 21:01:27 Отдыхали с дочкой у Натальи.08. Wav Пиковый уровень.6 Качество диапазона 100.0 CRC теста C1A052E4 CRC копии C1A052E4 Копирование.

Гостевой дом «натали» - Лазаревское



аше натали


Карта сайта